Star.Trek.Discovery.S04E02.WEBRip.x264-ION10 > 외국티비
웹하드 가입에서 다운로드까지 어렵지 않아요~
웹하드 가입에서 다운로드까지 어렵지 않아요~
 [구글검색] 구글에서 바다보아 검색 - 구글에서 토렌트를 검색하실 때에 검색어 뒤에 바다보아를 꼭 붙여서 검색하세요.     바다보아에서 광고중인 웹에 문제가 있다면 메뉴에 나와 있는 운영자 이메일로 연락 주십시오.     사용자님의 다운로드가 완료될 때까지 저희가 함께하겠습니다. 편안하고 즐거운 시간 되십시오.

시작페이지
파일몽

Star.Trek.Discovery.S04E02.WEBRip.x264-ION10 Torrent
  • 파일설명:     Screens... (click to enlarge): Infolink -> https://www.imdb.com/title/tt5171438/Quote:MediainfoVideoID : 1Format : AVCFormat/Info : Advanced Video CodecFormat profile : [email protected]Format settings : CABAC / 5 Ref FramesFormat settings, CABAC : YesFormat settings, Reference frames : 5 framesCodec ID : avc1Codec ID/Info : Advanced Video CodingDuration : 49 min 46 sBit rate : 1 100 kb/sWidth : 720 pixelsHeight : 300 pixelsDisplay aspect ratio : 2.40:1Frame rate mode : ConstantFrame rate : 24.000 FPSColor space : YUVChroma subsampling : 4:2:0Bit depth : 8 bitsScan type : ProgressiveBits/(Pixel*Frame) : 0.212Stream size : 386 MiB (81%)Title : RARBG - Star.Trek.Discovery.S04E02.WEBRip.x264-ION10Writing library : x264 core 152 r2851M ba24899Encoding settings : cabac=1 / ref=5 / deblock=1:-1:-1 / analyse=0x3:0x113 / me=umh / subme=9 / psy=1 / psy_rd=1.00:0.15 / mixed_ref=1 / me_range=16 / chroma_me=1 / trellis=2 / 8x8dct=1 / cqm=0 / deadzone=21,11 / fast_pskip=1 / chroma_qp_offset=-3 / threads=9 / lookahead_threads=1 / sliced_threads=0 / nr=0 / decimate=1 / interlaced=0 / bluray_compat=0 / constrained_intra=0 / bframes=3 / b_pyramid=2 / b_adapt=2 / b_bias=0 / direct=3 / weightb=1 / open_gop=0 / weightp=2 / keyint=250 / keyint_min=24 / scenecut=40 / intra_refresh=0 / rc_lookahead=50 / rc=abr / mbtree=1 / bitrate=1100 / ratetol=1.0 / qcomp=0.60 / qpmin=0 / qpmax=69 / qpstep=4 / ip_ratio=1.40 / aq=1:1.00Encoded date : UTC 2021-11-25 07:11:40Tagged date : UTC 2021-11-25 07:11:40Codec configuration box : avcCAudioID : 2Format : AAC LCFormat/Info : Advanced Audio Codec Low ComplexityCodec ID : mp4a-40-2Duration : 49 min 46 sDuration_LastFrame : -11 msBit rate mode : ConstantBit rate : 256 kb/sChannel(s) : 2 channelsChannel layout : L RSampling rate : 48.0 kHzFrame rate : 46.875 FPS (1024 SPF)Compression mode : LossyStream size : 91.2 MiB (19%)Title : RARBG - Star.Trek.Discovery.S04E02.WEBRip.x264-ION10Language : EnglishDefault : YesAlternate group : 1Encoded date : UTC 2021-11-25 07:11:40Tagged date : UTC 2021-11-25 07:11:40 Star.Trek.Discovery.S04E02.WEBRip.x264-ION10…
  • 인기 연관 검색어 구글 검색:    Starcr 바다보아    
  • 관련 자료(가나다순):    9-1-1 Lone Star S01 COMPLETE 고화질 AMZN WEBRip x264-GalaxyTV ⭐ - …    Young Rock S01E09 A Lady Named Star Search 초고화질 AMZN WEBRip DDP…
  • 관련 자료(시간순):    WWE NXT 2020 05 27 HDTV x264-Star TJET - 바다보아    Pawn Stars S19E09 WEB x264-PHOENiX
  • 같은 시각 자료:    Star.Trek.Discovery.S04E02.초고화질.WEB.H264-CAKES    South.Park.S24E00.Post.COVID.초고화질.WEB.H264-WHOSNEXT
  직접 다운로드      무료 다운로드

Star.Trek.Discovery.S04E02.WEBRip.x264-ION10 > 외국티비       즐겨찾기 등록

Star.Trek.Discovery.S04E02.WEBRip.x264-ION10
  • Star.Trek.Discovery.S04E02.WEBRip.x264-ION10  로고   토렌트 링크 제공 서치엔진
  • Star.Trek.Discovery.S04E02.WEBRip.x264-ION10 로고   초고속 다운로드
  • Star.Trek.Discovery.S04E02.WEBRip.x264-ION10 로고   갓구운 토렌트 토스트
  • Star.Trek.Discovery.S04E02.WEBRip.x264-ION10 로고   토렌트 커뮤니티 주주토렌트
  • Star.Trek.Discovery.S04E02.WEBRip.x264-ION10 로고   초고속 다운로드
  • Star.Trek.Discovery.S04E02.WEBRip.x264-ION10 로고   충성을 다할 것을 토렌트썰
  • Star.Trek.Discovery.S04E02.WEBRip.x264-ION10 로고   너의 토렌트 토렌트유
  • Screens... (click to enlarge): Infolink -> https://www.imdb.com/title/tt5171438/Quote:MediainfoVideoID : 1Format : AVCFormat/Info : Advanced Video CodecFormat profile : [email protected]Format settings : CABAC / 5 Ref FramesFormat settings, CABAC : YesFormat settings, Reference frames : 5 framesCodec ID : avc1Codec ID/Info : Advanced Video CodingDuration : 49 min 46 sBit rate : 1 100 kb/sWidth : 720 pixelsHeight : 300 pixelsDisplay aspect ratio : 2.40:1Frame rate mode : ConstantFrame rate : 24.000 FPSColor space : YUVChroma subsampling : 4:2:0Bit depth : 8 bitsScan type : ProgressiveBits/(Pixel*Frame) : 0.212Stream size : 386 MiB (81%)Title : RARBG - Star.Trek.Discovery.S04E02.WEBRip.x264-ION10Writing library : x264 core 152 r2851M ba24899Encoding settings : cabac=1 / ref=5 / deblock=1:-1:-1 / analyse=0x3:0x113 / me=umh / subme=9 / psy=1 / psy_rd=1.00:0.15 / mixed_ref=1 / me_range=16 / chroma_me=1 / trellis=2 / 8x8dct=1 / cqm=0 / deadzone=21,11 / fast_pskip=1 / chroma_qp_offset=-3 / threads=9 / lookahead_threads=1 / sliced_threads=0 / nr=0 / decimate=1 / interlaced=0 / bluray_compat=0 / constrained_intra=0 / bframes=3 / b_pyramid=2 / b_adapt=2 / b_bias=0 / direct=3 / weightb=1 / open_gop=0 / weightp=2 / keyint=250 / keyint_min=24 / scenecut=40 / intra_refresh=0 / rc_lookahead=50 / rc=abr / mbtree=1 / bitrate=1100 / ratetol=1.0 / qcomp=0.60 / qpmin=0 / qpmax=69 / qpstep=4 / ip_ratio=1.40 / aq=1:1.00Encoded date : UTC 2021-11-25 07:11:40Tagged date : UTC 2021-11-25 07:11:40Codec configuration box : avcCAudioID : 2Format : AAC LCFormat/Info : Advanced Audio Codec Low ComplexityCodec ID : mp4a-40-2Duration : 49 min 46 sDuration_LastFrame : -11 msBit rate mode : ConstantBit rate : 256 kb/sChannel(s) : 2 channelsChannel layout : L RSampling rate : 48.0 kHzFrame rate : 46.875 FPS (1024 SPF)Compression mode : LossyStream size : 91.2 MiB (19%)Title : RARBG - Star.Trek.Discovery.S04E02.WEBRip.x264-ION10Language : EnglishDefault : YesAlternate group : 1Encoded date : UTC 2021-11-25 07:11:40Tagged date : UTC 2021-11-25 07:11:40 Star.Trek.Discovery.S04E02.WEBRip.x264-ION10…

Star.Trek.Discovery.S04E02.WEBRip.x264-ION10
Star.Trek.Discovery.S04E02.WEBRip.x264-ION10


Screens... (click to enlarge):











Infolink -> https://www.imdb.com/title/tt5171438/

Quote:

Mediainfo
Video
ID : 1
Format : AVC
Format/Info : Advanced Video Codec
Format profile : [email protected]
Format settings : CABAC / 5 Ref Frames
Format settings, CABAC : Yes
Format settings, Reference frames : 5 frames
Codec ID : avc1
Codec ID/Info : Advanced Video Coding
Duration : 49 min 46 s
Bit rate : 1 100 kb/s
Width : 720 pixels
Height : 300 pixels
Display aspect ratio : 2.40:1
Frame rate mode : Constant
Frame rate : 24.000 FPS
Color space : YUV
Chroma subsampling : 4:2:0
Bit depth : 8 bits
Scan type : Progressive
Bits/(Pixel*Frame) : 0.212
Stream size : 386 MiB (81%)
Title : RARBG - Star.Trek.Discovery.S04E02.WEBRip.x264-ION10
Writing library : x264 core 152 r2851M ba24899
Encoding settings : cabac=1 / ref=5 / deblock=1:-1:-1 / analyse=0x3:0x113 / me=umh / subme=9 / psy=1 / psy_rd=1.00:0.15 / mixed_ref=1 / me_range=16 / chroma_me=1 / trellis=2 / 8x8dct=1 / cqm=0 / deadzone=21,11 / fast_pskip=1 / chroma_qp_offset=-3 / threads=9 / lookahead_threads=1 / sliced_threads=0 / nr=0 / decimate=1 / interlaced=0 / bluray_compat=0 / constrained_intra=0 / bframes=3 / b_pyramid=2 / b_adapt=2 / b_bias=0 / direct=3 / weightb=1 / open_gop=0 / weightp=2 / keyint=250 / keyint_min=24 / scenecut=40 / intra_refresh=0 / rc_lookahead=50 / rc=abr / mbtree=1 / bitrate=1100 / ratetol=1.0 / qcomp=0.60 / qpmin=0 / qpmax=69 / qpstep=4 / ip_ratio=1.40 / aq=1:1.00
Encoded date : UTC 2021-11-25 07:11:40
Tagged date : UTC 2021-11-25 07:11:40
Codec configuration box : avcC

Audio
ID : 2
Format : AAC LC
Format/Info : Advanced Audio Codec Low Complexity
Codec ID : mp4a-40-2
Duration : 49 min 46 s
Duration_LastFrame : -11 ms
Bit rate mode : Constant
Bit rate : 256 kb/s
Channel(s) : 2 channels
Channel layout : L R
Sampling rate : 48.0 kHz
Frame rate : 46.875 FPS (1024 SPF)
Compression mode : Lossy
Stream size : 91.2 MiB (19%)
Title : RARBG - Star.Trek.Discovery.S04E02.WEBRip.x264-ION10
Language : English
Default : Yes
Alternate group : 1
Encoded date : UTC 2021-11-25 07:11:40
Tagged date : UTC 2021-11-25 07:11:40

Star.Trek.Discovery.S04E02.WEBRip.x264-ION10


<<

이 게시판에서 관련된 자료 목록

>>
웹하드 가입에서 다운로드까지 어렵지 않아요~
웹하드 가입에서 다운로드까지 어렵지 않아요~

IMFORMATION STORE

상단으로 가운데로 하단으로